не снимается видео с экрана

Описание: Если вам непонятно в чём проблема, то пишите сюда.
Если же вы знаете какая деталь виновата, то найдите наиболее подходящий раздел ниже.
Правила раздела: http://pc-forums.ru/topic1880.html
Модератор: Junior

#21 @иван@ » 17.03.2013, 08:04

Блин, я рано обрадовался. Получилось только с minecraft. Из других игр все по прежнему. Я даже пробовал воспроизвести видео из фрапса и записать его другой программой для снятия видео с экрана. И там почемуто качество тоже стало поганым.

Добавлено спустя 20 минут 23 секунды:
Вот примеры результатов примеры.zip
i5-2320 3.0Ghz/Gigabyte GA-Z68P-DS3 v2/DDR3 4096MB 1333MHz Kingston/500Gb Seagate 7200/Chieftec 500W/Palit GTX550Ti/Windows 7 Home Basic x64.
Изображение
@иван@
Автор темы, Житель форума
Житель форума
Аватара
Возраст: 18
Репутация: 11
Лояльность: 137 (+137/−0)
Сообщения: 783
Темы: 44
Зарегистрирован: 17.07.2012
С нами: 4 года 4 месяца

не снимается видео с экрана

 

#22 pandor » 17.03.2013, 09:30

@иван@ писал(а):Вот примеры результатов примеры.zip
Посмотрел. Нормально. Только почему ролики трехсекундные, так задумано?
@иван@ писал(а):Блин, я рано обрадовался.
Не вешай нос, дело поправимое. Давай так:
распиши все подробнее, пошагово, как и что делал после фрапса? Какие настройки? И что предполагается потом делать с готовыми файлами, на чем просматривать, или просто залить в тырнет?
Mediainfo файлов:
FormatFactory
[spoiler=]
Код: Выделить всё
Общее
Полное имя                               : D:\Downloads\примеры\FormatFactory.avi
Формат                                   : AVI
Формат/Информация                        : Audio Video Interleave
Размер файла                             : 1,35 Мбайт
Продолжительность                        : 2 с. 733 мс.
Общий поток                              : 4138 Кбит/сек
Программа кодирования                    : MEncoder SVN-r30881(20100311-gcc4.3.3)
Библиотека кодирования                   : MPlayer

Видео
Идентификатор                            : 0
Формат                                   : MPEG-4 Visual
Профиль формата                          : Advanced Simple@L5
Параметр BVOP формата                    : 2
Параметр QPel формата                    : Нет
Параметр GMC формата                     : Без точки перехода
Параметр матрицы формата                 : Default (H.263)
Идентификатор кодека                     : XVID
Идентификатор кодека/Подсказка           : XviD
Продолжительность                        : 2 с. 733 мс.
Битрейт                                  : 3985 Кбит/сек
Ширина                                   : 1920 пикселей
Высота                                   : 1080 пикселей
Соотношение сторон                       : 16:9
Частота кадров                           : 30,000 кадров/сек
Цветовое пространство                    : YUV
Субдискретизация насыщенности            : 4:2:0
Битовая глубина                          : 8 бит
Тип развёртки                            : Прогрессивная
Метод сжатия                             : С потерями
Бит/(Пиксели*Кадры)                      : 0.064
Размер потока                            : 1,30 Мбайт (96%)
Библиотека кодирования                   : XviD 1.2.1 (UTC 2008-12-04)

Аудио
Идентификатор                            : 1
Формат                                   : MPEG Audio
Версия формата                           : Version 1
Профиль формата                          : Layer 3
Режим                                    : Joint stereo
Расширение режима                        : MS Stereo
Идентификатор кодека                     : 55
Идентификатор кодека/Подсказка           : MP3
Продолжительность                        : 2 с. 717 мс.
Вид битрейта                             : Постоянный
Битрейт                                  : 128 Кбит/сек
Каналы                                   : 2 канала
Частота                                  : 44,1 КГц
Метод сжатия                             : С потерями
Задержка видео                           : 33 мс.
Размер потока                            : 42,4 Кбайт (3%)
Выравнивание                             : Соединение по промежуткам
Продолжительность промежутка             : 26  мс. (0,79 видеокадр)
Время предзагрузки промежутка            : 522  мс.
Библиотека кодирования                   : LAME3.98
]
[/spoiler]fraps
[spoiler=]
Код: Выделить всё
Общее
Полное имя                               : D:\Downloads\примеры\fraps.avi
Формат                                   : AVI
Формат/Информация                        : Audio Video Interleave
Размер файла                             : 104 Мбайт
Продолжительность                        : 2 с. 800 мс.
Общий поток                              : 311 Мбит/сек

Видео
Идентификатор                            : 0
Формат                                   : Fraps
Идентификатор кодека                     : FPS1
Продолжительность                        : 2 с. 800 мс.
Битрейт                                  : 305 Мбит/сек
Ширина                                   : 1920 пикселей
Высота                                   : 1080 пикселей
Соотношение сторон                       : 16:9
Частота кадров                           : 30,000 кадров/сек
Цветовое пространство                    : YUV
Битовая глубина                          : 8 бит
Бит/(Пиксели*Кадры)                      : 4.898
Размер потока                            : 102 Мбайт (98%)

Аудио
Идентификатор                            : 1
Формат                                   : PCM
Параметр Endianness формата              : Little
Параметр Sign формата                    : Signed
Идентификатор кодека                     : 1
Продолжительность                        : 2 с. 800 мс.
Вид битрейта                             : Постоянный
Битрейт                                  : 6144 Кбит/сек
Каналы                                   : 2 канала
Частота                                  : 192 КГц
Битовая глубина                          : 16 бит
Размер потока                            : 2,05 Мбайт (2%)
Выравнивание                             : Соединение по промежуткам
Продолжительность промежутка             : 933  мс. (28,00 видеокадров)
[/spoiler]Конверт из Movavi Video Editor
[spoiler=]
Код: Выделить всё
Общее
Полное имя                               : D:\Downloads\примеры\конверт из Movavi Video Editor.avi
Формат                                   : AVI
Формат/Информация                        : Audio Video Interleave
Размер файла                             : 1,51 Мбайт
Продолжительность                        : 2 с. 800 мс.
Общий поток                              : 4525 Кбит/сек

Видео
Идентификатор                            : 1
Формат                                   : MPEG-4 Visual
Профиль формата                          : Advanced Simple@L5
Параметр BVOP формата                    : 2
Параметр QPel формата                    : Нет
Параметр GMC формата                     : Без точки перехода
Параметр матрицы формата                 : Default (H.263)
Режим смешивания                         : Сжатый битовый поток
Идентификатор кодека                     : XVID
Идентификатор кодека/Подсказка           : XviD
Продолжительность                        : 2 с. 800 мс.
Битрейт                                  : 4357 Кбит/сек
Ширина                                   : 720 пикселей
Высота                                   : 576 пикселей
Соотношение сторон                       : 5:4
Частота кадров                           : 30,000 кадров/сек
Частота кадров в оригинале               : 25,000 кадров/сек
Стандарт вещания                         : PAL
Цветовое пространство                    : YUV
Субдискретизация насыщенности            : 4:2:0
Битовая глубина                          : 8 бит
Тип развёртки                            : Прогрессивная
Метод сжатия                             : С потерями
Бит/(Пиксели*Кадры)                      : 0.350
Размер потока                            : 1,45 Мбайт (96%)
Библиотека кодирования                   : XviD 1.2.1 (UTC 2008-12-04)

Аудио
Идентификатор                            : 0
Формат                                   : MPEG Audio
Версия формата                           : Version 1
Профиль формата                          : Layer 3
Режим                                    : Dual mono
Идентификатор кодека                     : 55
Идентификатор кодека/Подсказка           : MP3
Продолжительность                        : 2 с. 761 мс.
Вид битрейта                             : Постоянный
Битрейт                                  : 128 Кбит/сек
Каналы                                   : 2 канала
Частота                                  : 44,1 КГц
Метод сжатия                             : С потерями
Задержка видео                           : 26 мс.
Размер потока                            : 43,1 Кбайт (3%)
Выравнивание                             : Разделение по промежуткам
Продолжительность промежутка             : 33  мс. (1,00 видеокадр)
Библиотека кодирования                   : LAME3.93
[/spoiler]И в каждом есть ошибки. Но об них потом. Освой сначала нормальный конвертер, а потом уже будем разбираться со всем остальным. Ссылка в личке.
И да, побольше информации в постах...
pandor
Опытный экспериментатор
Опытный экспериментатор
Аватара
Откуда: Россия, Питер
Репутация: 196
Лояльность: 44 (+44/−0)
Сообщения: 1675
Темы: 24
Зарегистрирован: 10.09.2011
С нами: 5 лет 3 месяца

 

#23 @иван@ » 17.03.2013, 10:07

pandor писал(а):Только почему ролики трехсекундные, так задумано?
да, чтоб недолго заливать.
pandor писал(а):что делал после фрапса?
открыл видео в VirtualDub
Видео/прямопотоковое копирование
Файл/сохранить как AVI...

У получившегося файла менял формат в FormatFactory на *.avi, открывал в Movavi Video Editor и экспортировал из него.

pandor писал(а):что предполагается потом делать с готовыми файлами, на чем просматривать
Залить в инет и просматривать на компе в подписи.

Добавлено спустя 2 минуты 51 секунду:
Прогу щас скачаю, что в ней делать?
i5-2320 3.0Ghz/Gigabyte GA-Z68P-DS3 v2/DDR3 4096MB 1333MHz Kingston/500Gb Seagate 7200/Chieftec 500W/Palit GTX550Ti/Windows 7 Home Basic x64.
Изображение
@иван@
Автор темы, Житель форума
Житель форума
Аватара
Возраст: 18
Репутация: 11
Лояльность: 137 (+137/−0)
Сообщения: 783
Темы: 44
Зарегистрирован: 17.07.2012
С нами: 4 года 4 месяца

#24 pandor » 17.03.2013, 11:42

@иван@ писал(а):Прогу щас скачаю, что в ней делать?
Установить, изучать - тренироваться.
Я к вечеру буду.
pandor
Опытный экспериментатор
Опытный экспериментатор
Аватара
Откуда: Россия, Питер
Репутация: 196
Лояльность: 44 (+44/−0)
Сообщения: 1675
Темы: 24
Зарегистрирован: 10.09.2011
С нами: 5 лет 3 месяца

не снимается видео с экрана

 

#25 @иван@ » 17.03.2013, 14:44

у меня руссификатор не получилось установись, но вроде с конвертированиeм разобрался. Получилось чуть лучше чем прежде. А мне охота четкости, как в самой игре. Может вы сами попробуете с моим видео?
i5-2320 3.0Ghz/Gigabyte GA-Z68P-DS3 v2/DDR3 4096MB 1333MHz Kingston/500Gb Seagate 7200/Chieftec 500W/Palit GTX550Ti/Windows 7 Home Basic x64.
Изображение
@иван@
Автор темы, Житель форума
Житель форума
Аватара
Возраст: 18
Репутация: 11
Лояльность: 137 (+137/−0)
Сообщения: 783
Темы: 44
Зарегистрирован: 17.07.2012
С нами: 4 года 4 месяца

#26 pandor » 17.03.2013, 21:39

@иван@ писал(а):у меня руссификатор не получилось установись
С установкой второго обновления(из папки Update) - русский включается автоматом.
@иван@ писал(а):Получилось чуть лучше чем прежде. А мне охота четкости, как в самой игре
Вань, надо ж понимать, что после сжатия, качество конечного видео, ну никак не может быть одинаковым в сравнение с исходником. Максимально приблизить качество к исходнику - возможно!
@иван@ писал(а):Может вы сами попробуете с моим видео?
Да не вопрос, легко, но дело-то не в этом. Я думал, у нас задача - тебя @иван@ обучить азам видеообработки.
..........
Видео можешь в личку закинуть.
pandor
Опытный экспериментатор
Опытный экспериментатор
Аватара
Откуда: Россия, Питер
Репутация: 196
Лояльность: 44 (+44/−0)
Сообщения: 1675
Темы: 24
Зарегистрирован: 10.09.2011
С нами: 5 лет 3 месяца

 

#27 @иван@ » 17.03.2013, 21:55

ну веть у меня получилось близко к идеалу, а размер уменьшился раз в 10.
pandor писал(а): Я думал, у нас задача - тебя @иван@ обучить азам видеообработки.
Да, но мне интересно как получится у вас. Может полученное мной уже предел?
i5-2320 3.0Ghz/Gigabyte GA-Z68P-DS3 v2/DDR3 4096MB 1333MHz Kingston/500Gb Seagate 7200/Chieftec 500W/Palit GTX550Ti/Windows 7 Home Basic x64.
Изображение
@иван@
Автор темы, Житель форума
Житель форума
Аватара
Возраст: 18
Репутация: 11
Лояльность: 137 (+137/−0)
Сообщения: 783
Темы: 44
Зарегистрирован: 17.07.2012
С нами: 4 года 4 месяца

#28 pandor » 17.03.2013, 22:01

Жду материал.
pandor
Опытный экспериментатор
Опытный экспериментатор
Аватара
Откуда: Россия, Питер
Репутация: 196
Лояльность: 44 (+44/−0)
Сообщения: 1675
Темы: 24
Зарегистрирован: 10.09.2011
С нами: 5 лет 3 месяца

не снимается видео с экрана

 

#29 @иван@ » 17.03.2013, 22:07

из первого поста на этой странице - "fraps"
i5-2320 3.0Ghz/Gigabyte GA-Z68P-DS3 v2/DDR3 4096MB 1333MHz Kingston/500Gb Seagate 7200/Chieftec 500W/Palit GTX550Ti/Windows 7 Home Basic x64.
Изображение
@иван@
Автор темы, Житель форума
Житель форума
Аватара
Возраст: 18
Репутация: 11
Лояльность: 137 (+137/−0)
Сообщения: 783
Темы: 44
Зарегистрирован: 17.07.2012
С нами: 4 года 4 месяца

#30 pandor » 17.03.2013, 22:10

Так он всего на 103Мб, там жать-то нечего. С фрапса хотя бы на гиг нужно.
Ладно, попробую этот.

Добавлено спустя 48 секунд:
Что делаем, флешь или HD? Размер конечника?
pandor
Опытный экспериментатор
Опытный экспериментатор
Аватара
Откуда: Россия, Питер
Репутация: 196
Лояльность: 44 (+44/−0)
Сообщения: 1675
Темы: 24
Зарегистрирован: 10.09.2011
С нами: 5 лет 3 месяца

#31 @иван@ » 17.03.2013, 22:23

размер до 20мб хотябы, HD.
i5-2320 3.0Ghz/Gigabyte GA-Z68P-DS3 v2/DDR3 4096MB 1333MHz Kingston/500Gb Seagate 7200/Chieftec 500W/Palit GTX550Ti/Windows 7 Home Basic x64.
Изображение
@иван@
Автор темы, Житель форума
Житель форума
Аватара
Возраст: 18
Репутация: 11
Лояльность: 137 (+137/−0)
Сообщения: 783
Темы: 44
Зарегистрирован: 17.07.2012
С нами: 4 года 4 месяца

#32 pandor » 17.03.2013, 22:31

Сделано. Четыре Full HD-видео разных форматов: MP4(H.264), MPG(MPEG), MKV(AVC), M2TS(AVC)
В личке.
pandor
Опытный экспериментатор
Опытный экспериментатор
Аватара
Откуда: Россия, Питер
Репутация: 196
Лояльность: 44 (+44/−0)
Сообщения: 1675
Темы: 24
Зарегистрирован: 10.09.2011
С нами: 5 лет 3 месяца

#33 @иван@ » 18.03.2013, 21:09

Посмотри в личку.
i5-2320 3.0Ghz/Gigabyte GA-Z68P-DS3 v2/DDR3 4096MB 1333MHz Kingston/500Gb Seagate 7200/Chieftec 500W/Palit GTX550Ti/Windows 7 Home Basic x64.
Изображение
@иван@
Автор темы, Житель форума
Житель форума
Аватара
Возраст: 18
Репутация: 11
Лояльность: 137 (+137/−0)
Сообщения: 783
Темы: 44
Зарегистрирован: 17.07.2012
С нами: 4 года 4 месяца

#34 pandor » 19.03.2013, 00:12

@иван@ писал(а):Посмотри в личку.
Посмотрел.
pandor
Опытный экспериментатор
Опытный экспериментатор
Аватара
Откуда: Россия, Питер
Репутация: 196
Лояльность: 44 (+44/−0)
Сообщения: 1675
Темы: 24
Зарегистрирован: 10.09.2011
С нами: 5 лет 3 месяца

Пред.

  • Понравилась тема? Поделись с друзьями!

Вернуться в Любые проблемы с компьютером

 


  • Похожие темы
    Ответы
    Просмотры
    Последнее сообщение

Кто сейчас на форуме (по активности за 20 минут)

Сейчас этот раздел просматривают: ronim и 6 гостей